[Login] or [Signup]
Login
Username:
Password:
[Signup]
[Recover Account]


Poll


You must be logged in to view polls



Torrent Details For "You Were Never Really Here (2017) English 720p WEB-DL x264 700MB"

You Were Never Really Here (2017) English 720p WEB-DL x264 700MB

Download this torrent | Magnet Download
Health:
Seeds: 0
Leechers: 2
Completed: 17 
Last Checked: 15-10-2018 04:01:22
External Torrent
Update Stats
Download Magnet


Poster


iMDB
Imdb Picture Title: You Were Never Really Here
Year: 2017
Runtime: 90 minutes
Votes: 6904
Rating: 7.5/10
Language: English
Country: UK, France, USA
All Genres: Drama, Mystery, Thriller
Plot Outline: A traumatized veteran, unafraid of violence, tracks down missing girls for a living. When a job spins out of control, Joe's nightmares overtake him as a conspiracy is uncovered leading to what may be his death trip or his awakening.
Director: Lynne Ramsay
Writing By: Lynne Ramsay,Jonathan Ames,
Produced By: Jonathan Ames,Rosa Attab,Pascal Caucheteux,Carrie Fix,Rose Garnett,Rebecca O'Brien,Lynne Ramsay,Ben Roberts,Sue Bruce Smith,James Wilson,
Music: Jonny Greenwood
Cast:
Joaquin Phoenix as Joe
Dante Pereira-Olson as Young Joe
Larry Canady as Cincinatti Cab Driver
Vinicius Damasceno as Moises
Neo Randall as Moises's Friend
Judith Roberts as Joe's Mother
Frank Pando as Angel
John Doman as John McCleary
Edward Latham as Drug Dealer
Alex Manette as Senator Albert Votto
Trailers:
'You Were Never Really Here' Trailer With Director's Commentary
Lynne Ramsay's Latest
Official US Trailer
Official UK Trailer


Watch-Free-HD     Download

Details
Name:You Were Never Really Here (2017) English 720p WEB-DL x264 700MB
Description:
[code][FORMAT]:…………………….[ Matroska
[ENCODER]:…………..[ KatMaster
[THANKS TO]:…………………..[ TiTAN[/code]

A traumatized veteran, unafraid of violence, tracks down missing girls for a living. When a job spins out of control, Joe's nightmares overtake him as a conspiracy is uncovered leading to what may be his death trip or his awakening.


Movie Info:

Genres: Drama, Mystery, Thriller
Directed by: Lynne Ramsay
Writers: Lynne Ramsay, Jonathan Ames
Stars Cast: Joaquin Phoenix, Judith Roberts, Ekaterina Samsonov
IMDb: http://www.imdb.com/title/tt5742374/
Language: English

Video
ID                          : 1
Format                      : AVC
Format/Info                 : Advanced Video Codec
Format profile              : [email protected]
Format settings             : CABAC / 4 Ref Frames
Format settings, CABAC      : Yes
Format settings, ReFrames   : 4 frames
Codec ID                    : V_MPEG4/ISO/AVC
Duration                    : 1 h 29 min
Bit rate                    : 1 000 kb/s
Width                       : 1 280 pixels
Height                      : 530 pixels
Display aspect ratio        : 2.40:1
Frame rate mode             : Constant
Frame rate                  : 23.976 (24000/1001) FPS
Color space                 : YUV
Chroma subsampling          : 4:2:0
Bit depth                   : 8 bits
Scan type                   : Progressive
Bits/(Pixel*Frame)          : 0.061
Stream size                 : 637 MiB (88%)

Audio
ID                          : 2
Format                      : AAC
Format/Info                 : Advanced Audio Codec
Format profile              : LC
Codec ID                    : A_AAC-2
Duration                    : 1 h 29 min
Bit rate                    : 128 kb/s
Channel(s)                  : 2 channels
Channel positions           : Front: L R
Sampling rate               : 48.0 kHz
Frame rate                  : 46.875 FPS (1024 SPF)
Compression mode            : Lossy
Delay relative to video     : -21 ms
Stream size                 : 81.9 MiB (11%)


Screenshots:

 
 
 
 
 
 
 
Category:Movies > WEB-HD
Lang:English  English
Total Size:719.91 MB
Info Hash:53bf1c854693756c9a71a77d1a0174bb07c55e3e
Added By:KatMaster
Date Added:07-04-2018 14:31:00
Views:379
Hits:25

Download Torrent

Ratings:Not Yet Rated (Log in to rate it)


Tracker:
udp://tracker.coppersurfer.tk:6969/announce


File List: 


Comments

No comments still posted

Powered by 10 Hamsters v2-svn -|- Page Generated In 1.131861 secs.
-|- RSS FEED
Theme By: Nikkbu