[Login] or [Signup]
Login
Username:
Password:
[Signup]
[Recover Account]


Poll


You must be logged in to view polls



Torrent Details For "Masti (2004) Hindi HDRip 720p x264 AAC TaRa.mkv"

Masti (2004) Hindi HDRip 720p x264 AAC TaRa.mkv

Download this torrent | Magnet Download
Health:
Seeds: 0
Leechers: 0
Completed: 1,012 
Last Checked: 16-10-2018 14:46:33
External Torrent
Update Stats
Download Magnet


Poster


Watch-Free-HD     Download

Details
Name:Masti (2004) Hindi HDRip 720p x264 AAC TaRa.mkv
Description:

 Bahubali ( 2015 ) Hindi 720p WebHDRip x264 AAC Untouched { TaRa }.mkv


Quote:

===================================================================
General
Complete name               : Masti (2004) Hindi HDRip 720p x264 AAC { TaRa }.mkv
Format                      : Matroska
Format version              : Version 4 / Version 2
File size                   : 1.17 GiB
Duration                    : 2 h 31 min
Overall bit rate mode       : Variable
Overall bit rate            : 1 100 kb/s
===================================================================
Video
ID                          : 1
Format                      : AVC
Format/Info                 : Advanced Video Codec
Format profile              : [email protected]
Format settings, CABAC      : Yes
Format settings, ReFrames   : 3 frames
Codec ID                    : V_MPEG4/ISO/AVC
Duration                    : 2 h 31 min
Bit rate mode               : Variable
Bit rate                    : 1 002 kb/s
Maximum bit rate            : 40.0 Mb/s
Width                       : 1 280 pixels
Height                      : 544 pixels
Display aspect ratio        : 2.35:1
Frame rate mode             : Constant
Frame rate                  : 25.000 FPS
Color space                 : YUV
Chroma subsampling          : 4:2:0
Bit depth                   : 8 bits
Scan type                   : Progressive
Bits/(Pixel*Frame)          : 0.058
Stream size                 : 1.06 GiB (91%)
Title                       : Masti .....::::: TaRa :::::.....
Language                    : Hindi
Default                     : Yes
Forced                      : No
===================================================================
Audio
ID                          : 2
Format                      : AAC
Format/Info                 : Advanced Audio Codec
Format profile              : LC
Codec ID                    : A_AAC
Duration                    : 2 h 31 min
Bit rate                    : 96.0 kb/s
Channel(s)                  : 2 channels
Channel positions           : Front: L R
Sampling rate               : 48.0 kHz
Frame rate                  : 46.875 FPS (1024 spf)
Compression mode            : Lossy
Delay relative to video     : 9 ms
Stream size                 : 104 MiB (9%)
Title                       : Masti  .....::::: TaRa :::::.....
Language                    : Hindi
Default                     : Yes
Forced                      : No
===================================================================






























Category:Movies > Bollywood
Lang:Hindi
Total Size:1.17 GB
Info Hash:87926be6e6e11e1b8b5d919f2c9054fe9efc53ca
Added By:SkTaRa
Date Added:31-03-2017 12:42:47
Views:810
Hits:187

Download Torrent

Ratings:Not Yet Rated (Log in to rate it)

  


Tracker:
udp://tracker.openbittorrent.com:80/announce

This Torrent also has backup trackers
URLSeedersLeechersCompleted
http://www.skyts.net:6969/announce000
http://www.opentrackr.org/announce000
http://mgtracker.org:2710/announce000
http://5.79.83.193:2710/announce000
http://109.121.134.121:1337/announce000


File List: 


Comments

No comments still posted

Powered by 10 Hamsters v2-svn -|- Page Generated In 3.912556 secs.
-|- RSS FEED
Theme By: Nikkbu